CAPTAIN AMERICA CIVIL WAR 2016 English Download Movie Torrent

Torrent Health

Seeds: 31 Peers: 10

CAPTAIN AMERICA CIVIL WAR 2016 English Download Movie Torrent

CAPTAIN AMERICA CIVIL WAR 2016 Virus free

CAPTAIN AMERICA CIVIL WAR 2016

Captain America Civil War (2016) 1 HDTS x264 AAC mp4 2GB By TeriKasam

general

Full name: Captain America Civil War (2016) x264 AAC HDTS

Format: MPEG-4

Format profile: Media Basics

Codec ID: Isom (Isom / ISO2 / avc1 / mp41)

File: GIB

Duration: 2h 17mn

Overall bit rate mode: Variable

Overall bit rate: 1040 Kbps

Writing application:

video

ID: 1

Format: AVC

Format / Info: Advanced Video Codec

Format profile:

landscape format, CABAC: Yes

landscape format, reframes 4 frames

Codec ID: avc1

Codec ID / Info: Advanced Video Coding

Duration: 2h 17mn

bit rate: 920 Kbps

Width: 720 pixels

Height: 400 pixels

Screen aspect ratio: 16: 9

Frame rate mode: Variable

Frame rate: (29970/1000) FPS

The minimum frame: FPS

Maximum frame rate: FPS

Color Space: YUV

Chroma subsampling 4: 2: 0

Bit Depth: 8 bits

scan type: Progressive

Bits / (Pixel * Frame):

Stream size: 907 MiB (88%)

Writing library: x264 core 142 r2479 dd79a61

Encoding environment: CABAC = 1 / ref = 1 / DeBlock = 1: 0: 0 / any lot = 0x1: 0x111 / me = block / subme = 2 / PSY = 1 / psy_rd = / mixed_ref = 0 / me_range = 16 / chroma_me = 1 / trellis = 0 / 8x8dct = 0 / CQM = 0 / deadzone = 21.11 / fast_pskip = 1 / chroma_qp_offset = 0 / thread = 9 / lookahead_threads = 3 / sliced_threads = 0 / = 0 / destroy = 1 / interlaced = 0 / bluray_compat = 0 / constrained_intra = 0 / bframes = 3 / b_pyramid = 2 / b_adapt = 1 / b_bias = 0 / redirect = 1 / weightb = 1 / open_gop = 0 / weightp = 1 / function keyInt = 300 / keyint_min = 30 / scenecut = 40 / intra_refresh = 0 / rc_lookahead = 10 / RC = CRF / mbtree = 1 / CRF / = qcomp = / qpmin = 0 / qpmax = 69 / qpstep = 4 / vbv_maxrate = 20000 / vbv_bufsize = 25000 / crf_max = / nal_hrd = no / add = 0 / ip_ratio = / = 1

The variety of colors: Limited

Preliminary Color: NTSC

transfer characteristics:

the coefficient matrix:

audio

ID: 2

Format: AAC

Format / Info: Advanced Audio Codec

Format profile: LC

Codec ID: 40

Duration: 2h 17mn

Bit rate mode: Variable

bit rate: 111 Kbps

The maximum bit rate: 200 Kbps

Channel (s): 2 channels

Channel positions: Front: L R

Sample rates: KHz

Frame rate: FPS (SPF 1024)

Compression mode: Lossy

Stream size: 109 MiB (11%)

Standard: Yes

Alternative group: 1

screenshot

Click on the picture